Интернет-проект Game-Over1.Net - это возможность скачать игры, фильмы, СОФТ с помощью Torrent. Игры в самых разных жанрах, фильмы на любой вкус, а также компьютерные программы и Прочие.

 
Скачать Игры,Фильмы,Программы через торрент

Падение Лондона / London Has Fallen (2016) HDRip HEVC от qusi555

Автор: viper от 02.06.2016, 19:38, Посмотрело: 125, Скачали:0

0

Название: Падение Лондона
Оригинальное название: London Has Fallen
Год выхода: 2016
Страна: США, Великобритания, Болгария
Студия: Gerard Butler Alan Siegel Entertainment, LHF Film, Millennium Films
ЖанрБоевиктриллеркриминал
Режиссер: Бабак Наджафи
В ролях: Джерард Батлер, Аарон Экхарт, Морган Фримен, Алон Абутбул, Валид Зуэйтер, Адель Беншериф, Мехди Дехби, Шивани Гаи, Мартин Петрушев, Оуэн Дэвис, Майкл Уилдман, Рада Митчелл, Стэйси Шэйн, Пенни Дауни, Кларксон Гай Уильямс, Патрик Кеннеди, Колин Сэлмон, Анджела Бассетт, Дебора Грант, Эндрю Плевин

О фильме:

При загадочных обстоятельствах убит британский премьер-министр. На его похороны съезжаются лидеры крупнейших держав мира. Несмотря на запредельные меры безопасности, неизвестные террористы успешно взрывают приглашенных руководителей государств одного за другим вместе с половиной исторического центра Лондона. Однако, для президента США и его личного телохранителя все только начинается...

Файл
Продолжительность: 01:38:42
Перевод: Дублированный | iTunes
Кодек: HeVC/x265 [x265 1.8+2-55a4a9b920ff:[Windows][GCC 5.2.0][64 bit] 8bit+10bit+12bit]
Источник: BDRip 720p [от ExKinoRay 6.36 GB]
Качество: HDRip
Видео: 1022x428p, 1318 Kbps, 8 bits, 23.976 (24000/1001) fps
Аудио: 48 kHz, AC3, 2.0, 128 Kbps | Дублированный, iTunes | RUS

Скриншоты
          

Media Info

Video
ID : 1
Format : HEVC
Format/Info : High Efficiency Video Coding
Format profile : Main@L3@Main
Codec ID : V_MPEGH/ISO/HEVC
Duration : 1h 38mn
Bit rate : 1 318 Kbps
Width : 1 022 pixels
Height : 428 pixels
Display aspect ratio : 2.40:1
Frame rate mode : Constant
Frame rate : 23.976 (24000/1001) fps
Color space : YUV
Chroma subsampling : 4:2:0
Bit depth : 8 bits
Bits/(Pixel*Frame) : 0.126
Stream size : 931 MiB (91%)
Title : Rip by qusi555 (Baku, Azerbaijan)
Writing library : x265 1.8+2-55a4a9b920ff:[Windows][GCC 5.2.0][64 bit] 8bit+10bit+12bit
Encoding settings : wpp / ctu=64 / min-cu-size=8 / max-tu-size=32 / tu-intra-depth=1 / tu-inter-depth=1 / me=1 / subme=2 / merange=57 / no-rect / no-amp / max-merge=2 / temporal-mvp / no-early-skip / rdpenalty=0 / no-tskip / no-tskip-fast / strong-intra-smoothing / no-lossless / no-cu-lossless / no-constrained-intra / no-fast-intra / open-gop / no-temporal-layers / interlace=0 / keyint=250 / min-keyint=23 / scenecut=40 / rc-lookahead=20 / lookahead-slices=0 / bframes=4 / bframe-bias=0 / b-adapt=2 / ref=3 / limit-refs=0 / weightp / no-weightb / aq-mode=1 / qg-size=32 / aq-strength=1.00 / cbqpoffs=0 / crqpoffs=0 / rd=3 / psy-rd=0.30 / rdoq-level=0 / psy-rdoq=0.00 / signhide / deblock / sao / no-sao-non-deblock / b-pyramid / cutree / rc=2 / pass / bitrate=1318 / qcomp=0.60 / qpmin=0 / qpmax=51 / qpstep=4 / cplxblur=20.0 / qblur=0.5 / ipratio=1.40 / pbratio=1.30
Default : Yes
Forced : No

Audio
ID : 2
Format : AC-3
Format/Info : Audio Coding 3
Mode extension : CM (complete main)
Format settings, Endianness : Big
Codec ID : A_AC3
Duration : 1h 39mn
Bit rate mode : Constant
Bit rate : 128 Kbps
Channel(s) : 2 channels
Channel positions : Front: L R
Sampling rate : 48.0 KHz
Frame rate : 31.250 fps (1536 spf)
Compression mode : Lossy
Stream size : 91.0 MiB (9%)
Title : RUS 128 convert audio
Default : Yes
Forced : No

Внимание! HEVC

*H.265/HEVC (High Efficiency Video Coding) - это новый стандарт кодирования видео.
*Рипы в фомате HEVC, в настоящее время не поддерживается большинством аппаратных проигрывателей.
*Для корректного воспроизведения может потребоваться обновление ПО.
*Стандарт H.265/HEVC является логическим продолжением стандарта H.264/AVC (Advanced Video Coding), и характеризуется более эффективными алгоритмами сжатия, а также поддержкой высокого разрешения вплоть до 8K UHD (8192x4320). Первая версия стандарта H.265 была опубликована в начале 2013 года.

Любителям решения из коробки - установить последнюю версию на выбор: 
Media Player Classic - Black Edition (MPC-BE)
VLC media player
Daum Pot Player
GOM Media Player

Любителям WMP и других плееров, использующих по умолчанию для воспроизведения системные кодеки+сплитеры - установить K-Lite Codec Pack версии 10.1.0 и выше.
Любимые плееры, не использующии по умолчанию для воспроизведения системные кодеки+сплитеры, нужно перенастроить на использование оных.

Категория: Триллеры, Криминальные, Боевики

Уважаемый посетитель, Вы зашли на сайт как незарегистрированный пользователь.
Мы рекомендуем Вам зарегистрироваться либо войти на сайт под своим именем. Или пользуйтесь vk комментариями
Всего комментариев: 0
avatar